Imaginemos que tenemos un bonito vídeo que queremos compartir en YouTube, pero además, queremos añadirle nuestro propio logo para que…»»»


Imaginemos que tenemos un bonito vídeo que queremos compartir en YouTube, pero además, queremos añadirle nuestro propio logo para que quede más personalizado. ¿Cómo lo hacemos? Si tenemos un sistema operativo basado en Unix, como GNU/Linux, no hace falta instalar un engorroso y pesado programa de edición de vídeo. Con el comando ffmpeg, que casi siempre o está por defecto o está en cualquier repositorio, y una imagen con el logo ya es suficiente.

Veamos los sencillísimos pasos:

1 – Miramos que tenemos instalado ffmpeg en el sistema.

2 – Comprobamos el tamaño de pantalla del vídeo mediante: 

ffmpeg -i video.mpg

La parte importante de la información que necesitamos está en:

Input #0, mpeg, from ‘video.mpg’:
Duration: 00:06:27.55, start: 0.500000, bitrate: 5115 kb/s
Stream #0.0[0x1e0]: Video: mpeg1video, yuv420p, 468×384 [PAR 178:163 DAR 3471:2608], 104857 kb/s, 25.00 tb(r)
Stream #0.1[0x1c0]: Audio: mp2, 44100 Hz, stereo, s16, 128 kb/s
At least one output file must be specified

 3 – Abrimos un programa gráfico, como el GIMP, y creamos una imagen del mismo tamaño que el vídeo, que en este caso será de 468×384 píxels, con el color #808080 de fondo, con el logo que se quiera añadir:

4 – Volvemos a la línea de comando y escribimos, (en este ejemplo, el vídeo y la imagen están guardadas en el mismo directorio):

ffmpeg -sameq -i video.mpg -vhook ‘/usr/lib/vhook/watermark.so -f imagen.jpg’  -ar 44100 -acodec libmp3lame -ab 128 -ac 2 video.mpg

Tengamos en cuenta que el fichero watermark.so puede encontrarse en un lugar diferente, por lo que habría que indicar el camino correcto. También, aquí he cambiado el tipo de sonido a mp3, cosa que podría no ser necesaria.

5 – Y ya está listo. Un ejemplo del resultado se puede encontrar aquí.

Espero que te haya podido ayudar a embellecer tus vídeos. Ahora todo depende de tu imaginación :-)

Lee más sobre: , , ,

Sobre

Sorprendido y curioso por la vida humana; admiro a los creadores, inventores, los que abren nuevos caminos e intento también poner mi granito de arena. Comencé Crónicas Subterráneas en 2007, y aquí sigo al pie del cañón gracias a sus lectores. Además, escribo libros, hago vídeos, dibujo, fotografío, diseño camisetas, y todo lo que se me ocurra de forma creativa.




  • Lo más leído…

  • Principales temas tratados…